Login
Username:
Password:
[Signup]
[Recover Account]


Browse Torrents

Poll


You must be logged in to view polls



Latest Torrents
The Predator 2018 ...
- [Size: 1.01 GB]

Stephen.Colbert.20...
- [Size: 649.84 MB]

A Snow White Chris...
- [Size: 1.04 GB]

Rent-an-Elf (2018)...
- [Size: 1.06 GB]

Happy Phirr Bhag J...
- [Size: 1.12 GB]


Torrent Details For "Natkhat ( Aakatayi) (2018) 720p Hindi Dubbed WEBHD x264 AAC 1.4GB - MovCr"

Natkhat ( Aakatayi) (2018) 720p Hindi Dubbed WEBHD x264 AAC 1.4GB - MovCr

Download this torrent | Magnet Download
Health:
Seeds: 2,182
Leechers: 3,160
Completed: 3,548 
Last Checked: 24-09-2018 10:05:00
External Torrent
Update Stats



Images Host

Poster


iMDB
Title: Aakatayi
Year: 2017
Runtime: 150 minutes
Votes: 9
Rating: 7.0/10
Language: Telugu
All Genres: Action
Director: Rom Bhimana
Writing By: Rom Bhimana,
Music: Mani Sharma
Cast:
Aashish Raj Bidkikar as Hero
Brahmanandam as Comedian
Rukhsar Dhillon as Heroine
Ameesha Patel as Herself


Watch-Free-HD     Download

Details
Name:Natkhat ( Aakatayi) (2018) 720p Hindi Dubbed WEBHD x264 AAC 1.4GB - MovCr
Description:
Our Site   www.movcr.com


Natkhat ( Aakatayi) (2018) 720p Hindi Dubbed WEBHD x264 AAC 1.4GB - MovCr



 http://www.imdb.com/title/tt6340092/

 


General
Unique ID                                : 251294527729316283196045395298584103358 (0xBD0D90C9F237A450868BAC3AFE0409BE)
Complete name                            : www.MovCr.com - Natkhat ( Aakatayi) (2018) 720p Hindi Dubbed WEBHD x264 AAC 1.4GB - MovCr.mkv
Format                                   : Matroska
Format version                           : Version 4 / Version 2
File size                                : 1.43 GiB
Duration                                 : 2 h 17 min
Overall bit rate                         : 1 484 kb/s
Movie name                               : www.MovCr.com
Encoded date                             : UTC 2018-09-23 16:39:27
Writing application                      : mkvmerge v26.0.0 ('In The Game') 64-bit
Writing library                          : libebml v1.3.6 + libmatroska v1.4.9

Video
ID                                       : 1
Format                                   : AVC
Format/Info                              : Advanced Video Codec
Format profile                           : [email protected]
Format settings                          : CABAC / 3 Ref Frames
Format settings, CABAC                   : Yes
Format settings, RefFrames               : 3 frames
Codec ID                                 : V_MPEG4/ISO/AVC
Duration                                 : 2 h 17 min
Bit rate                                 : 1 357 kb/s
Width                                    : 1 280 pixels
Height                                   : 720 pixels
Display aspect ratio                     : 16:9
Frame rate mode                          : Constant
Frame rate                               : 25.000 FPS
Color space                              : YUV
Chroma subsampling                       : 4:2:0
Bit depth                                : 8 bits
Scan type                                : Progressive
Bits/(Pixel*Frame)                       : 0.059
Stream size                              : 1.30 GiB (91%)
Title                                    : www.MovCr.com
Default                                  : Yes
Forced                                   : No
Color range                              : Limited
Color primaries                          : BT.709
Transfer characteristics                 : BT.709
Matrix coefficients                      : BT.709

Audio
ID                                       : 2
Format                                   : AAC
Format/Info                              : Advanced Audio Codec
Format profile                           : LC
Codec ID                                 : A_AAC-2
Duration                                 : 2 h 17 min
Bit rate                                 : 126 kb/s
Channel(s)                               : 2 channels
Channel positions                        : Front: L R
Sampling rate                            : 44.1 kHz
Frame rate                               : 43.066 FPS (1024 SPF)
Compression mode                         : Lossy
Stream size                              : 123 MiB (8%)
Title                                    : www.MovCr.com
Language                                 : Hindi
Default                                  : Yes
Forced                                   : No


 
 
 
 
 
 
 
 
Category:Movies > South Dub
Lang:Hindi
Total Size:1.43 GB
Info Hash:bde86d351f4cb8fad66d0acdc47ffd8e0b5554ed
Added By:Kingmaker
Date Added:23-09-2018 17:48:40
Downloads:332

Ratings:Not Yet Rated (Log in to rate it)


Tracker:
udp://tracker.coppersurfer.tk:6969/announce


File List: 


Comments

No comments still posted

Top
Copyright 2018 DownloadHD -|- Page Generated In 1.527468 secs.
-|- RSS Feed -|- Feed Info