Login
Username:
Password:
[Signup]
[Recover Account]


Browse Torrents

Poll


You must be logged in to view polls



Latest Torrents
Dead.by.Dawn.S01E0...
- [Size: 1.03 GB]

Robin.Hood.2018.10...
- [Size: 3.37 GB]

Dead.by.Dawn.S01E0...
- [Size: 308.05 MB]

Trek.The.Movie.201...
- [Size: 1.37 GB]

Robin.Hood.2018.HC...
- [Size: 1.38 GB]


Torrent Details For "Upgrade 2018 720p WEB-DL x264 ESub [MW]"

Upgrade 2018 720p WEB-DL x264 ESub [MW]

Download this torrent | Magnet Download
Health:
Seeds: 126
Leechers: 383
Completed: 255 
Last Checked: 14-08-2018 17:33:22
External Torrent
Update Stats



Images Host

Poster
No poster


Watch-Free-HD     Download

Details
Name:Upgrade 2018 720p WEB-DL x264 ESub [MW]
Description:

 


General
Format                                   : Matroska
Format version                           : Version 4 / Version 2
File size                                : 870 MiB
Duration                                 : 1 h 39 min
Overall bit rate                         : 1 218 kb/s

Video
ID                                       : 1
Format                                   : AVC
Format/Info                              : Advanced Video Codec
Format profile                           : [email protected]
Format settings                          : CABAC / 4 Ref Frames
Format settings, CABAC                   : Yes
Format settings, RefFrames               : 4 frames
Codec ID                                 : V_MPEG4/ISO/AVC
Duration                                 : 1 h 39 min
Bit rate                                 : 1 100 kb/s
Width                                    : 1 280 pixels
Height                                   : 532 pixels
Display aspect ratio                     : 2.40:1
Frame rate mode                          : Constant
Frame rate                               : 23.976 (24000/1001) FPS
Color space                              : YUV
Chroma subsampling                       : 4:2:0
Bit depth                                : 8 bits
Scan type                                : Progressive
Bits/(Pixel*Frame)                       : 0.067
Stream size                              : 777 MiB (89%)
Writing library                          : x264 core 155 r2901 7d0ff22
Default                                  : Yes
Forced                                   : No

Audio
ID                                       : 2
Format                                   : AAC
Format/Info                              : Advanced Audio Codec
Format profile                           : LC
Codec ID                                 : A_AAC-2
Duration                                 : 1 h 39 min
Bit rate                                 : 128 kb/s
Channel(s)                               : 2 channels
Channel positions                        : Front: L R
Sampling rate                            : 48.0 kHz
Frame rate                               : 46.875 FPS (1024 SPF)
Compression mode                         : Lossy
Stream size                              : 91.8 MiB (11%)
Language                                 : English
Default                                  : Yes
Forced                                   : No

Text
ID                                       : 3
Format                                   : UTF-8
Codec ID                                 : S_TEXT/UTF8
Codec ID/Info                            : UTF-8 Plain Text
Duration                                 : 1 h 33 min
Bit rate                                 : 48 b/s
Count of elements                        : 1292
Stream size                              : 33.6 KiB (0%)
Default                                  : Yes
Forced                                   : No


 http://pichub.site/image/RjGOv
 http://pichub.site/image/Rjxfu
 http://pichub.site/image/RjU69
 http://pichub.site/image/Rj0hR
 http://pichub.site/image/RjLrs
 http://pichub.site/image/RjrWB

Category:Movies > HDRips
Lang:English  English
Total Size:870.19 MB
Info Hash:1d5c0ac0a33e8bd8e00d1aabd0a79ba3d47c3ffc
Added By:Freaky
Date Added:14-08-2018 17:33:11
Downloads:48

Ratings:Not Yet Rated (Log in to rate it)


Tracker:
udp://tracker.coppersurfer.tk:6969/announce


File List: 


Comments

No comments still posted

Top
Copyright 2018 DownloadHD -|- Page Generated In 0.972509 secs.
-|- RSS Feed -|- Feed Info