Login
Username:
Password:
[Signup]
[Recover Account]


Browse Torrents

Poll


You must be logged in to view polls



Latest Torrents
Dead.by.Dawn.S01E0...
- [Size: 1.03 GB]

Robin.Hood.2018.10...
- [Size: 3.37 GB]

Dead.by.Dawn.S01E0...
- [Size: 308.05 MB]

Trek.The.Movie.201...
- [Size: 1.37 GB]

Robin.Hood.2018.HC...
- [Size: 1.38 GB]


Torrent Details For "Na.Maloom.Afraad.2.(2017).HDRip.480p.Urdu.H264.AAC- LatestHDMovies.Exclusive"

Na.Maloom.Afraad.2.(2017).HDRip.480p.Urdu.H264.AAC- LatestHDMovies.Exclusive

Download this torrent | Magnet Download
Health:
Seeds: 49
Leechers: 10
Completed: 8,690 
Last Checked: 24-12-2018 15:37:54
External Torrent
Update Stats



Images Host

Poster


iMDB
Imdb Picture Title: Na Maloom Afraad 2
Year: 2017
Runtime: 118 minutes
Votes: 556
Rating: 7.5/10
Language: Urdu
Country: Pakistan
All Genres: Comedy, Crime, Thriller
Plot Outline: This is a sequel to 2014 comedy "Na Maloom Afrad" ("Unknown men"). Three unfortunate souls plan a big heist on their shortcut to wealth but things go comically wrong along the way.


Director: Nabeel Qureshi
Writing By: Fizza Ali Meerza,Nabeel Qureshi,
Produced By: Mehdi Ali,Fizza Ali Meerza,
Music: Shani Arshad
Cast:
Hania Aamir as Pari
Ashiq Ahmed as
Nayyar Ejaz as Sheikh Sultan Al Baklawa
Mohsin Abbas Haider as Moon
Urwa Hocane as Naina
Nazar Hussain as
Sohail Javed as
Sadaf Kanwal as Dancer
Marina Khan as
Saleem Mairaj as Iqbal


Watch-Free-HD     Download

Details
Name:Na.Maloom.Afraad.2.(2017).HDRip.480p.Urdu.H264.AAC- LatestHDMovies.Exclusive
Description:
[center][b]



Visit Now = http://latesthdmovies.org/na-...-480p-urdu-h264-aac/


General
Unique ID                   : 44501830564280412570801694851575212947 (0x217ABDA57CA4855956173092048E6B93)
Complete name               : C:\Users\SHAHID\Videos\Na.Maloom.Afraad.2.(2017).HDRip.480p.Urdu.H264.AAC- LatestHDMovies.Exclusive.mkv
Format                      : Matroska
Format version              : Version 4 / Version 2
File size                   : 537 MiB
Duration                    : 1 h 59 min
Overall bit rate            : 629 kb/s
Movie name                  : http://LatestHDMovies.Org
Encoded date                : UTC 2018-08-12 06:17:21
Writing application         : mkvmerge v25.0.0 ('Prog Noir') 32-bit
Writing library             : libebml v1.3.6 + libmatroska v1.4.9
Cover                       : Yes
Attachments                 : Cover.jpg

Video
ID                          : 1
Format                      : AVC
Format/Info                 : Advanced Video Codec
Format profile              : [email protected]
Format settings             : 1 Ref Frames
Format settings, CABAC      : No
Format settings, ReFrames   : 1 frame
Codec ID                    : V_MPEG4/ISO/AVC
Duration                    : 1 h 59 min
Bit rate                    : 530 kb/s
Width                       : 720 pixels
Height                      : 480 pixels
Display aspect ratio        : 2.40:1
Frame rate mode             : Constant
Frame rate                  : 25.000 FPS
Color space                 : YUV
Chroma subsampling          : 4:2:0
Bit depth                   : 8 bits
Scan type                   : Progressive
Bits/(Pixel*Frame)          : 0.061
Stream size                 : 453 MiB (84%)
Title                       : http://LatestHDMovies.Org
Writing library             : x264 core 135
Encoding settings           : cabac=0 / ref=1 / deblock=1:0:0 / analyse=0x1:0x111 / me=dia / subme=7 / psy=1 / psy_rd=1.00:0.00 / mixed_ref=0 / me_range=4 / chroma_me=1 / trellis=0 / 8x8dct=0 / cqm=0 / deadzone=21,11 / fast_pskip=1 / chroma_qp_offset=-2 / threads=2 / lookahead_threads=1 / sliced_threads=0 / nr=0 / decimate=1 / interlaced=0 / bluray_compat=0 / constrained_intra=0 / bframes=0 / weightp=0 / keyint=12 / keyint_min=7 / scenecut=40 / intra_refresh=0 / rc_lookahead=12 / rc=abr / mbtree=1 / bitrate=530 / ratetol=1.0 / qcomp=0.60 / qpmin=3 / qpmax=51 / qpstep=4 / ip_ratio=1.40 / aq=1:1.00
Language                    : English
Default                     : Yes
Forced                      : No

Audio
ID                          : 2
Format                      : AAC
Format/Info                 : Advanced Audio Codec
Format profile              : LC
Codec ID                    : A_AAC-2
Duration                    : 1 h 59 min
Bit rate                    : 96.0 kb/s
Channel(s)                  : 2 channels
Channel positions           : Front: L R
Sampling rate               : 44.1 kHz
Frame rate                  : 43.066 FPS (1024 SPF)
Compression mode            : Lossy
Delay relative to video     : -36 ms
Stream size                 : 81.9 MiB (15%)
Title                       : http://LatestHDMovies.Org
Language                    : Urdu
Default                     : Yes
Forced                      : No


 
                 
Category:Movies > Pakistani
Lang:Urdu
Total Size:537.08 MB
Info Hash:156a81bb0b4596676d43d961b7a7517620415dee
Added By:LatestHDMovies
Date Added:12-08-2018 07:34:15
Downloads:1,307

Ratings:Not Yet Rated (Log in to rate it)


Tracker:
udp://tracker.coppersurfer.tk:6969/announce


File List: 


Comments

<< Previous      Next >>
1 - 4

[Report] Posted: 12-08-2018 at 12:44:37
iamsami



Thanks Bro.. Shukria Movie Upload Karne Ka..
Please Upload Teefa In Trouble
In HD or 480p In Good Result.. :)

[Report] Posted: 12-08-2018 at 14:00:54
LatestHDMovies



Sami jesy He HD mein availble hogi , It will be uploaded :)

[Report] Posted: 13-08-2018 at 01:56:22
Sagarlurka



Shahid bhai love your collection....
Bhai Halla gulla pakistani movie aur sawal 700 crore dollar ka kab milegi?

[Report] Posted: 13-08-2018 at 02:19:35
LatestHDMovies



Jesay he release hogi Upload kardunga

1 - 4
<< Previous      Next >>


Top
Copyright 2018 DownloadHD -|- Page Generated In 4.146925 secs.
-|- RSS Feed -|- Feed Info