Login
Username:
Password:
[Signup]
[Recover Account]


Browse Torrents

Poll


You must be logged in to view polls



Latest Torrents
Bao.2018.BDRip.x26...
- [Size: 44.69 MB]

Hello! (2017) HOT ...
- [Size: 138.25 MB]

Tell.Me.A.Story.US...
- [Size: 236.68 MB]

Tell.Me.A.Story.US...
- [Size: 232.50 MB]

Hello! (2017) HOT ...
- [Size: 433.74 MB]


Torrent Details For "The Package 2018.720p.NF.WEB-DL.AAC.-.DownloadHD"

The Package 2018.720p.NF.WEB-DL.AAC.-.DownloadHD

Download this torrent | Magnet Download
Health:
Seeds: 92
Leechers: 110
Completed: 159 
Last Checked: 11-08-2018 12:12:18
External Torrent
Update Stats



Images Host

Poster
No poster


Watch-Free-HD     Download

Details
Name:The Package 2018.720p.NF.WEB-DL.AAC.-.DownloadHD
Description:




       

Format                      : Matroska
Format version              : Version 4 / Version 2
File size                   : 744 MiB
Duration                    : 1 h 34 min
Overall bit rate            : 1 099 kb/s
Movie name                  : The Package 2018.720p.NF.WEB-DL.AAC.-.DownloadHD

Video
ID                          : 1
Format                      : AVC
Format/Info                 : Advanced Video Codec
Format profile              : [email protected]
Format settings             : CABAC / 8 Ref Frames
Format settings, CABAC      : Yes
Format settings, ReFrames   : 8 frames
Codec ID                    : V_MPEG4/ISO/AVC
Duration                    : 1 h 34 min
Bit rate                    : 1 000 kb/s
Width                       : 1 280 pixels
Height                      : 536 pixels
Display aspect ratio        : 2.40:1
Frame rate mode             : Constant
Frame rate                  : 23.976 (24000/1001) FPS

Audio
ID                          : 2
Format                      : AAC
Format/Info                 : Advanced Audio Codec
Format profile              : LC
Codec ID                    : A_AAC-2
Duration                    : 1 h 34 min
Bit rate                    : 96.0 kb/s
Channel(s)                  : 2 channels
Channel positions           : Front: L R
Sampling rate               : 48.0 kHz
Frame rate                  : 46.875 FPS (1024 SPF)

Text #1
ID                          : 3
Format                      : UTF-8
Codec ID                    : S_TEXT/UTF8
Codec ID/Info               : UTF-8 Plain Text
Duration                    : 1 h 29 min
Bit rate                    : 101 b/s
Count of elements           : 1899
Stream size                 : 66.8 KiB (0%)
Title                       : English
Language                    : English
Default                     : No
Forced                      : No

Text #2
ID                          : 4
Format                      : UTF-8
Codec ID                    : S_TEXT/UTF8
Codec ID/Info               : UTF-8 Plain Text
Duration                    : 1 h 30 min
Bit rate                    : 62 b/s
Count of elements           : 1578
Stream size                 : 41.3 KiB (0%)
Title                       : French
Language                    : French
Default                     : No
Forced                      : No

Text #3
ID                          : 5
Format                      : UTF-8
Codec ID                    : S_TEXT/UTF8
Codec ID/Info               : UTF-8 Plain Text
Duration                    : 1 h 33 min
Bit rate                    : 60 b/s
Count of elements           : 1641
Stream size                 : 41.4 KiB (0%)
Title                       : Polish
Language                    : Polish
Default                     : No
Forced                      : No

Text #4
ID                          : 6
Format                      : UTF-8
Codec ID                    : S_TEXT/UTF8
Codec ID/Info               : UTF-8 Plain Text
Duration                    : 1 h 29 min
Bit rate                    : 72 b/s
Count of elements           : 1611
Stream size                 : 47.7 KiB (0%)
Title                       : European Spanish
Language                    : Spanish
Default                     : No
Forced                      : No

Text #5
ID                          : 7
Format                      : UTF-8
Codec ID                    : S_TEXT/UTF8
Codec ID/Info               : UTF-8 Plain Text
Duration                    : 1 h 33 min
Bit rate                    : 67 b/s
Count of elements           : 1530
Stream size                 : 46.0 KiB (0%)
Title                       : Portuguese
Language                    : Portuguese
Default                     : No
Forced                      : No





For more Exclusive & Quality Stuff Visit :: DownloadHD

 

Category:Movies > WEB-HD
Lang:English  English
Total Size:749.98 MB
Info Hash:05be6e5e2d674654a195e174e6612b8533085544
Added By:Download
Date Added:11-08-2018 07:51:07
Downloads:49

Ratings:Not Yet Rated (Log in to rate it)


Tracker:
udp://tracker.coppersurfer.tk:6969/announce


File List: 


Comments

No comments still posted

Top
Copyright 2018 DownloadHD -|- Page Generated In 0.828982 secs.
-|- RSS Feed -|- Feed Info