Login
Username:
Password:
[Signup]
[Recover Account]


Browse Torrents

Poll


You must be logged in to view polls



Latest Torrents
Louis.Therouxs.Alt...
- [Size: 882.79 MB]

Sara.Baras.All.Her...
- [Size: 531.76 MB]

May.We.Sleep.Sound...
- [Size: 218.16 MB]

A.Skin.So.Soft.201...
- [Size: 814.97 MB]

Swarg Aashram Full...
- [Size: 383.80 MB]


Torrent Details For "Perdida 2018.720p.WEB-DL.x264.AAC.ESubs.-.DownloadHD"

Perdida 2018.720p.WEB-DL.x264.AAC.ESubs.-.DownloadHD

Download this torrent | Magnet Download
Health:
Seeds: 36
Leechers: 105
Completed: 104 
Last Checked: 10-08-2018 17:02:06
External Torrent
Update Stats



Images Host

Poster
No poster


Watch-Free-HD     Download

Details
Name:Perdida 2018.720p.WEB-DL.x264.AAC.ESubs.-.DownloadHD
Description:




       

Format                                   : Matroska
Format version                           : Version 4 / Version 2
File size                                : 815 MiB
Duration                                 : 1 h 43 min
Overall bit rate                         : 1 098 kb/s
Movie name                               : Perdida 2018.720p.WEB-DL.x264.AAC.ESubs.-.DownloadHD

Video
ID                                       : 1
Format                                   : AVC
Format/Info                              : Advanced Video Codec
Format profile                           : [email protected]
Format settings                          : CABAC / 8 Ref Frames
Format settings, CABAC                   : Yes
Format settings, RefFrames               : 8 frames
Codec ID                                 : V_MPEG4/ISO/AVC
Duration                                 : 1 h 43 min
Bit rate                                 : 1 000 kb/s
Width                                    : 1 280 pixels
Height                                   : 536 pixels
Display aspect ratio                     : 2.40:1
Frame rate mode                          : Constant
Frame rate                               : 24.000 FPS

Audio
ID                                       : 2
Format                                   : AAC
Format/Info                              : Advanced Audio Codec
Format profile                           : LC
Codec ID                                 : A_AAC-2
Duration                                 : 1 h 43 min
Bit rate                                 : 96.0 kb/s
Channel(s)                               : 2 channels
Channel positions                        : Front: L R
Sampling rate                            : 48.0 kHz
Frame rate                               : 46.875 FPS (1024 SPF)
Compression mode                         : Lossy
Delay relative to video                  : -21 ms
Stream size                              : 71.2 MiB (9%)
Title                                    : balikesirkentoyunculari.com
Language                                 : Spanish

Text #1
ID                                       : 3
Format                                   : UTF-8
Codec ID                                 : S_TEXT/UTF8
Codec ID/Info                            : UTF-8 Plain Text
Duration                                 : 1 h 35 min
Bit rate                                 : 46 b/s
Count of elements                        : 1117
Stream size                              : 32.8 KiB (0%)
Title                                    : English
Language                                 : English
Default                                  : Yes
Forced                                   : Yes

Text #2
ID                                       : 4
Format                                   : UTF-8
Codec ID                                 : S_TEXT/UTF8
Codec ID/Info                            : UTF-8 Plain Text
Duration                                 : 1 h 36 min
Bit rate                                 : 52 b/s
Count of elements                        : 1331
Stream size                              : 37.0 KiB (0%)
Title                                    : Spanish
Language                                 : Spanish
Default                                  : No
Forced                                   : No

Text #3
ID                                       : 5
Format                                   : UTF-8
Codec ID                                 : S_TEXT/UTF8
Codec ID/Info                            : UTF-8 Plain Text
Duration                                 : 1 h 42 min
Bit rate                                 : 41 b/s
Count of elements                        : 961
Stream size                              : 31.2 KiB (0%)
Title                                    : Portuguese
Language                                 : Portuguese
Default                                  : No
Forced                                   : No

Text #4
ID                                       : 6
Format                                   : UTF-8
Codec ID                                 : S_TEXT/UTF8
Codec ID/Info                            : UTF-8 Plain Text
Duration                                 : 1 h 42 min
Bit rate                                 : 41 b/s
Count of elements                        : 956
Stream size                              : 31.2 KiB (0%)
Title                                    : French
Language                                 : French
Default                                  : No
Forced                                   : No

Text #5
ID                                       : 7
Format                                   : UTF-8
Codec ID                                 : S_TEXT/UTF8
Codec ID/Info                            : UTF-8 Plain Text
Duration                                 : 1 h 42 min
Bit rate                                 : 34 b/s
Count of elements                        : 949
Stream size                              : 26.3 KiB (0%)
Title                                    : Polish
Language                                 : Polish
Default                                  : No
Forced                                   : No



For more Exclusive & Quality Stuff Visit :: DownloadHD

 

Category:Movies > WEB-HD
Lang:Spanish  Spanish
Total Size:821.49 MB
Info Hash:12afc95b426b532a87095f9d1419c836ac9f5ed7
Added By:Download
Date Added:10-08-2018 13:18:38
Downloads:44

Ratings:Not Yet Rated (Log in to rate it)


Tracker:
udp://tracker.coppersurfer.tk:6969/announce


File List: 


Comments

No comments still posted

Top
Copyright 2018 DownloadHD -|- Page Generated In 2.228903 secs.
-|- RSS Feed -|- Feed Info