Login
Username:
Password:
[Signup]
[Recover Account]


Browse Torrents

Poll


You must be logged in to view polls



Latest Torrents
TMZ.on.TV.2018.08....
- [Size: 161.76 MB]

The.Haves.and.the....
- [Size: 259.70 MB]

The.Haves.and.the....
- [Size: 259.70 MB]

The.Haves.and.the....
- [Size: 279.61 MB]

Take.Two.S01E09.72...
- [Size: 872.35 MB]


Torrent Details For "Affairs of State 2018 1080p BluRay x264 DTS [MW]"

Affairs of State 2018 1080p BluRay x264 DTS [MW]

Download this torrent | Magnet Download
Health:
Seeds: 92
Leechers: 138
Completed: 92 
Last Checked: 09-08-2018 15:13:36
External Torrent
Update Stats



Poster
No poster



Details
Name:Affairs of State 2018 1080p BluRay x264 DTS [MW]
Description:


 

General
Format                                   : Matroska
Format version                           : Version 4 / Version 2
File size                                : 2.47 GiB
Duration                                 : 1 h 37 min
Overall bit rate                         : 3 625 kb/s

Video
ID                                       : 1
Format                                   : AVC
Format/Info                              : Advanced Video Codec
Format profile                           : [email protected]
Format settings                          : CABAC / 4 Ref Frames
Format settings, CABAC                   : Yes
Format settings, RefFrames               : 4 frames
Codec ID                                 : V_MPEG4/ISO/AVC
Duration                                 : 1 h 37 min
Bit rate                                 : 3 000 kb/s
Width                                    : 1 920 pixels
Height                                   : 1 080 pixels
Display aspect ratio                     : 16:9
Frame rate mode                          : Constant
Frame rate                               : 23.976 (24000/1001) FPS
Color space                              : YUV
Chroma subsampling                       : 4:2:0
Bit depth                                : 8 bits
Scan type                                : Progressive
Bits/(Pixel*Frame)                       : 0.060
Stream size                              : 1.95 GiB (79%)
Writing library                          : x264 core 155 r2901 7d0ff22
Default                                  : Yes
Forced                                   : No

Audio
ID                                       : 2
Format                                   : DTS
Format/Info                              : Digital Theater Systems
Codec ID                                 : A_DTS
Duration                                 : 1 h 37 min
Bit rate mode                            : Constant
Bit rate                                 : 756 kb/s
Channel(s)                               : 6 channels
Channel positions                        : Front: L C R, Side: L R, LFE
Sampling rate                            : 48.0 kHz
Frame rate                               : 93.750 FPS (512 SPF)
Bit depth                                : 16 bits
Compression mode                         : Lossy
Stream size                              : 527 MiB (21%)
Language                                 : English
Default                                  : Yes
Forced                                   : No

Text
ID                                       : 3
Format                                   : UTF-8
Codec ID                                 : S_TEXT/UTF8
Codec ID/Info                            : UTF-8 Plain Text
Duration                                 : 1 h 35 min
Bit rate                                 : 62 b/s
Count of elements                        : 1386
Stream size                              : 44.0 KiB (0%)
Language                                 : English
Default                                  : Yes
Forced                                   : No


 http://pichub.site/image/RvKrk
 http://pichub.site/image/RvgQQ
 http://pichub.site/image/Rvu7v
 http://pichub.site/image/RvGNd
 http://pichub.site/image/RvNZ9
 http://pichub.site/image/RvvOu

Category:Movies > 1080P Bluray
Lang:English  English
Total Size:2.47 GB
Info Hash:f54e00263d6bac1e6d03e4759d9307032c4d89a2
Added By:Freaky
Date Added:09-08-2018 15:13:26
Downloads:121

Ratings:Not Yet Rated (Log in to rate it)


Tracker:
udp://tracker.coppersurfer.tk:6969/announce


File List: 


Comments

No comments still posted

Copyright 2018 DownloadHD -|- Page Generated In 0.353404 secs.
-|- RSS Feed -|- Feed Info