Login
Username:
Password:
[Signup]
[Recover Account]


Browse Torrents

Poll


You must be logged in to view polls



Latest Torrents
Stree (2018) Hindi...
- [Size: 3.02 GB]

WWE Survivor Serie...
- [Size: 677.10 MB]

WWE Survivor Serie...
- [Size: 1.43 GB]

Bhaijaan Elo Re.20...
- [Size: 4.12 GB]

The.Happytime.Murd...
- [Size: 1.33 GB]


Torrent Details For "The Barn 2018 1080p BluRay x264 DTS [MW]"

The Barn 2018 1080p BluRay x264 DTS [MW]

Download this torrent | Magnet Download
Health:
Seeds: 42
Leechers: 129
Completed: 38 
Last Checked: 09-08-2018 14:00:28
External Torrent
Update Stats



Images Host

Poster
No poster


Watch-Free-HD     Download

Details
Name:The Barn 2018 1080p BluRay x264 DTS [MW]
Description:

 


General
Format                                   : Matroska
Format version                           : Version 4 / Version 2
File size                                : 2.32 GiB
Duration                                 : 1 h 28 min
Overall bit rate                         : 3 772 kb/s

Video
ID                                       : 1
Format                                   : AVC
Format/Info                              : Advanced Video Codec
Format profile                           : [email protected]
Format settings                          : CABAC / 4 Ref Frames
Format settings, CABAC                   : Yes
Format settings, RefFrames               : 4 frames
Codec ID                                 : V_MPEG4/ISO/AVC
Duration                                 : 1 h 28 min
Bit rate                                 : 3 000 kb/s
Width                                    : 1 918 pixels
Height                                   : 792 pixels
Display aspect ratio                     : 2.40:1
Frame rate mode                          : Constant
Frame rate                               : 23.976 (24000/1001) FPS
Color space                              : YUV
Chroma subsampling                       : 4:2:0
Bit depth                                : 8 bits
Scan type                                : Progressive
Bits/(Pixel*Frame)                       : 0.082
Stream size                              : 1.86 GiB (80%)
Writing library                          : x264 core 155 r2901 7d0ff22
Default                                  : Yes
Forced                                   : No

Audio
ID                                       : 2
Format                                   : DTS
Format/Info                              : Digital Theater Systems
Codec ID                                 : A_DTS
Duration                                 : 1 h 28 min
Bit rate mode                            : Constant
Bit rate                                 : 756 kb/s
Channel(s)                               : 6 channels
Channel positions                        : Front: L C R, Side: L R, LFE
Sampling rate                            : 48.0 kHz
Frame rate                               : 93.750 FPS (512 SPF)
Bit depth                                : 16 bits
Compression mode                         : Lossy
Stream size                              : 477 MiB (20%)
Language                                 : English
Default                                  : Yes
Forced                                   : No



 http://pichub.site/image/Rvw7I
 http://pichub.site/image/RvyGX
 http://pichub.site/image/RvCZ8
 http://pichub.site/image/RviOJ
 http://pichub.site/image/RvtA5

Category:Movies > 1080P Bluray
Lang:English  English
Total Size:2.32 GB
Info Hash:ee8130031393ca3da8b688705f7cde3bc560799f
Added By:Freaky
Date Added:09-08-2018 13:59:58
Downloads:104

Ratings:Not Yet Rated (Log in to rate it)


Tracker:
udp://tracker.coppersurfer.tk:6969/announce


File List: 


Comments

No comments still posted

Top
Copyright 2018 DownloadHD -|- Page Generated In 0.920656 secs.
-|- RSS Feed -|- Feed Info