Login
Username:
Password:
[Signup]
[Recover Account]


Browse Torrents

Poll


You must be logged in to view polls



Latest Torrents
Satyameva Jayate 2...
- [Size: 435.18 MB]

Kill.the.Babysitte...
- [Size: 1.32 GB]

Gold.2018.Hindi.(1...
- [Size: 701.83 MB]

Upgrade.2018.BRRip...
- [Size: 1.36 GB]

Gold (2018) Hindi ...
- [Size: 1.09 GB]


Torrent Details For "Deadpool.2.2018.Super.Duper.Cut.UNRATED.1080p.BluRay.x264.DTS-HDC"

Deadpool.2.2018.Super.Duper.Cut.UNRATED.1080p.BluRay.x264.DTS-HDC

Download this torrent | Magnet Download
Health:
Seeds: 30
Leechers: 1,041
Completed: 24 
Last Checked: 08-08-2018 15:23:27
External Torrent
Update Stats



Poster


iMDB
Imdb Picture Title: Deadpool 2
Year: 2018
Runtime: 119 minutes
Votes: 10895
Rating: 8.5/10
Language: English
Country: USA
All Genres: Action, Adventure, Comedy, Sci-Fi
Plot Outline: After surviving a near fatal bovine attack, a disfigured cafeteria chef (Wade Wilson) struggles to fulfill his dream of becoming Mayberry's hottest bartender while also learning to cope with his lost sense of taste. Searching to regain his spice for life, as well as a flux capacitor, Wade must battle ninjas, the Yakuza, and a pack of sexually aggressive canines, as he journeys around the world to discover the importance of family, friendship, and flavor - finding a new taste for adventure and earning the coveted coffee mug title of World's Best Lover. Written by Twentieth Century Fox


Tagline: Prepare for the second coming.
Director: David Leitch
Writing By: Rhett Reese,Paul Wernick,Ryan Reynolds,Rob Liefeld,Fabian Nicieza,
Produced By: Simon Kinberg,Stan Lee,Jonathon Komack Martin,Kelly McCormick,Rhett Reese,Ryan Reynolds,Lauren Shuler Donner,Ethan Smith,Aditya Sood,Paul Wernick,
Music: Tyler Bates
Cast:
Josh Brolin as Nathan Summers / Cable
Ryan Reynolds as Wade / Deadpool
Morena Baccarin as Vanessa
Zazie Beetz as Domino
Brianna Hildebrand as Negasonic Teenage Warhead
Brad Pitt as Vanisher
Bill SkarsgÄrd as Zeitgeist
T.J. Miller as Weasel
Terry Crews as Bedlam
Rob Delaney as Peter
Trailers:
The Final Trailer
Official Trailer
Deadpool, Meet Cable - Trailer
Official Teaser
Deadpool 2



Details
Name:Deadpool.2.2018.Super.Duper.Cut.UNRATED.1080p.BluRay.x264.DTS-HDC
Description:
Video
ID : 1
Format : AVC
Format/Info : Advanced Video Codec
Format profile : [email protected]
Format settings : CABAC / 5 Ref Frames
Format settings, CABAC : Yes
Format settings, ReFrames : 5 frames
Codec ID : V_MPEG4/ISO/AVC
Duration : 2 h 13 min
Bit rate : 15.8 Mb/s
Width : 1 920 pixels
Height : 804 pixels
Display aspect ratio : 2.40:1
Frame rate mode : Constant
Frame rate : 23.976 (24000/1001) FPS
Color space : YUV
Chroma subsampling : 4:2:0
Bit depth : 8 bits
Scan type : Progressive
Bits/(Pixel*Frame) : 0.427
Stream size : 14.8 GiB (91%)
Title : Deadpool.2.2018.Super.Duper.Cut.UNRATED.1080p.BluRay.x264.DTS-HDC
Writing library : x264 core 148 r2665kMod a01e339
Encoding settings : cabac=1 / ref=5 / deblock=1:-3:-3 / analyse=0x3:0x133 / me=umh / subme=11 / psy=1 / fade_compensate=0.00 / psy_rd=1.05:0.00 / mixed_ref=1 / me_range=48 / chroma_me=1 / trellis=2 / 8x8dct=1 / cqm=0 / deadzone=21,11 / fast_pskip=0 / chroma_qp_offset=-2 / threads=24 / lookahead_threads=4 / sliced_threads=0 / nr=0 / decimate=0 / interlaced=0 / bluray_compat=0 / constrained_intra=0 / fgo=0 / bframes=8 / b_pyramid=2 / b_adapt=2 / b_bias=0 / direct=3 / weightb=1 / open_gop=0 / weightp=2 / keyint=240 / keyint_min=24 / scenecut=40 / intra_refresh=0 / rc=2pass / mbtree=0 / bitrate=15800 / ratetol=1.0 / qcomp=0.70 / qpmin=0 / qpmax=69 / qpstep=4 / cplxblur=20.0 / qblur=0.5 / ip_ratio=1.20 / pb_ratio=1.20 / aq=3:0.80
Language : English
Default : Yes
Forced : No

Audio
ID : 2
Format : DTS
Format/Info : Digital Theater Systems
Format profile : ES Matrix / Core
Codec ID : A_DTS
Duration : 2 h 13 min
Bit rate mode : Constant
Bit rate : 1 509 kb/s
Channel(s) : 7 channels / 6 channels
Channel positions : Front: L C R, Side: L R, Back: C, LFE / Front: L C R, Side: L R, LFE
Sampling rate : 48.0 kHz
Frame rate : 93.750 FPS (512 SPF)
Bit depth : 24 bits
Compression mode : Lossy
Stream size : 1.41 GiB (9%)
Title : Deadpool.2.2018.Super.Duper.Cut.UNRATED.1080p.BluRay.x264.DTS-HDC
Language : English
Default : Yes
Forced : No

Text
ID : 3
Format : UTF-8
Codec ID : S_TEXT/UTF8
Codec ID/Info : UTF-8 Plain Text
Duration : 2 h 11 min
Bit rate : 64 b/s
Count of elements : 2131
Stream size : 61.9 KiB (0%)
Language : English
Default : Yes
Forced : No

Menu
00:00:00.000 : en:00:00:00.000
00:02:31.693 : en:00:02:31.693
00:07:55.517 : en:00:07:55.517
00:10:46.229 : en:00:10:46.229
00:14:21.194 : en:00:14:21.194
00:17:42.937 : en:00:17:42.937
00:19:10.775 : en:00:19:10.775
00:24:14.370 : en:00:24:14.370
00:27:11.630 : en:00:27:11.630
00:37:17.444 : en:00:37:17.444
00:42:11.821 : en:00:42:11.821
00:44:40.428 : en:00:44:40.428
00:49:30.926 : en:00:49:30.926
00:52:20.471 : en:00:52:20.471
00:56:47.613 : en:00:56:47.613
01:01:00.073 : en:01:01:00.073
01:04:47.050 : en:01:04:47.050
01:07:22.997 : en:01:07:22.997
01:09:45.098 : en:01:09:45.098
01:11:45.426 : en:01:11:45.426
01:15:21.016 : en:01:15:21.016
01:19:19.213 : en:01:19:19.213
01:21:00.189 : en:01:21:00.189
01:24:49.543 : en:01:24:49.543
01:29:10.845 : en:01:29:10.845
01:32:30.420 : en:01:32:30.420
01:36:11.391 : en:01:36:11.391
01:38:18.851 : en:01:38:18.851
01:42:06.329 : en:01:42:06.329
01:44:18.711 : en:01:44:18.711
01:46:03.774 : en:01:46:03.774
01:48:06.730 : en:01:48:06.730
01:51:31.977 : en:01:51:31.977
01:55:05.398 : en:01:55:05.398
01:58:16.047 : en:01:58:16.047


 
 
 
Category:Movies > 1080P Bluray
Lang:English  English
Total Size:16.20 GB
Info Hash:305481dd520e28572795fdff2fa1d6cb76812645
Added By:Agent47
Date Added:08-08-2018 15:21:20
Downloads:62

Ratings:Not Yet Rated (Log in to rate it)


Tracker:
http://tracker.trackerfix.com:80/announce


File List: 


Comments

No comments still posted

Copyright 2018 DownloadHD -|- Page Generated In 0.555242 secs.
-|- RSS Feed -|- Feed Info