Login
Username:
Password:
[Signup]
[Recover Account]


Browse Torrents

Poll


You must be logged in to view polls



Latest Torrents
TMZ.on.TV.2018.08....
- [Size: 161.76 MB]

The.Haves.and.the....
- [Size: 259.70 MB]

The.Haves.and.the....
- [Size: 259.70 MB]

The.Haves.and.the....
- [Size: 279.61 MB]

Take.Two.S01E09.72...
- [Size: 872.35 MB]


Torrent Details For "Breaking In 2018 1080p BluRay x264 DTS 5.1 MSubS - DownloadHD"

Breaking In 2018 1080p BluRay x264 DTS 5.1 MSubS - DownloadHD

Download this torrent | Magnet Download
Health:
Seeds: 23
Leechers: 45
Completed:
Last Checked: 07-08-2018 15:26:23
External Torrent
Update Stats



Poster


iMDB
Imdb Picture Title: Breaking In
Year: 2018
Runtime: 88 minutes
Votes: 1731
Rating: 5.0/10
Language: English
Country: USA
All Genres: Action, Crime, Drama, Thriller
Plot Outline: A woman fights to protect her family during a home invasion.


Tagline: Payback is a Mother
Director: James McTeigue
Writing By: Ryan Engle,
Produced By: James Lopez,Jeff Morrone,William Packer,Craig Perry,Valerie Bleth Sharp,Jaime Primak Sullivan,Sheila Taylor,Gabrielle Union,
Music: Johnny Klimek
Cast:
Gabrielle Union as Shaun Russell
Billy Burke as Eddie
Richard Cabral as Duncan
Ajiona Alexus as Jasmine Russell
Levi Meaden as Sam
Seth Carr as Glover Russell
Mark Furze as Peter
Jason George as Justin Russell
Christa Miller as Maggie Harris
Damien Leake as Isaac
Trailers:
Official Trailer



Details
Name:Breaking In 2018 1080p BluRay x264 DTS 5.1 MSubS - DownloadHD
Description:
Breaking In 2018 1080p BluRay x264 DTS 5.1 MSubS - DownloadHD

Source: Remux @ Scene

Format                                   : Matroska
Format version                           : Version 4 / Version 2
File size                                : 4.37 GiB
Duration                                 : 1 h 28 min
Overall bit rate                         : 7 078 kb/s
Movie name                               : Breaking In 2018 - DownloadHD


Video
ID                                       : 1
Format                                   : AVC
Format/Info                              : Advanced Video Codec
Format profile                           : [email protected]
Format settings                          : CABAC / 5 Ref Frames
Format settings, CABAC                   : Yes
Format settings, RefFrames               : 5 frames
Codec ID                                 : V_MPEG4/ISO/AVC
Duration                                 : 1 h 28 min
Bit rate                                 : 6 312 kb/s
Width                                    : 1 920 pixels
Height                                   : 800 pixels
Display aspect ratio                     : 2.40:1
Frame rate mode                          : Constant
Frame rate                               : 23.976 (24000/1001) FPS
Language                                 : English
Default                                  : Yes
Forced                                   : No
Color range                              : Limited
Color primaries                          : BT.709
Transfer characteristics                 : BT.709
Matrix coefficients                      : BT.709

Audio
ID                                       : 2
Format                                   : DTS
Format/Info                              : Digital Theater Systems
Codec ID                                 : A_DTS
Duration                                 : 1 h 28 min
Bit rate mode                            : Constant
Bit rate                                 : 768 kb/s
Channel(s)                               : 6 channels
Channel positions                        : Front: L C R, Side: L R, LFE
Sampling rate                            : 48.0 kHz
Frame rate                               : 93.750 FPS (512 SPF)
Bit depth                                : 24 bits
Compression mode                         : Lossy
Stream size                              : 486 MiB (11%)
Language                                 : English
Default                                  : Yes
Forced                                   : No

Text #1
ID                                       : 3
Format                                   : UTF-8
Codec ID                                 : S_TEXT/UTF8
Codec ID/Info                            : UTF-8 Plain Text
Duration                                 : 1 h 24 min
Bit rate                                 : 41 b/s
Count of elements                        : 1007
Stream size                              : 25.8 KiB (0%)
Language                                 : English
Default                                  : Yes
Forced                                   : No

Text #2
ID                                       : 4
Format                                   : UTF-8
Codec ID                                 : S_TEXT/UTF8
Codec ID/Info                            : UTF-8 Plain Text
Duration                                 : 1 h 27 min
Bit rate                                 : 33 b/s
Count of elements                        : 819
Stream size                              : 21.6 KiB (0%)
Language                                 : Spanish
Default                                  : No
Forced                                   : No

Text #3
ID                                       : 5
Format                                   : UTF-8
Codec ID                                 : S_TEXT/UTF8
Codec ID/Info                            : UTF-8 Plain Text
Duration                                 : 1 h 27 min
Bit rate                                 : 30 b/s
Count of elements                        : 812
Stream size                              : 19.9 KiB (0%)
Language                                 : French
Default                                  : No
Forced                                   : No

Text #4
ID                                       : 6
Format                                   : UTF-8
Codec ID                                 : S_TEXT/UTF8
Codec ID/Info                            : UTF-8 Plain Text
Duration                                 : 1 h 27 min
Bit rate                                 : 0 b/s
Count of elements                        : 9
Stream size                              : 243 Bytes (0%)
Language                                 : Spanish
Default                                  : No
Forced                                   : No

Text #5
ID                                       : 7
Format                                   : UTF-8
Codec ID                                 : S_TEXT/UTF8
Codec ID/Info                            : UTF-8 Plain Text
Duration                                 : 1 h 24 min
Bit rate                                 : 0 b/s
Count of elements                        : 9
Stream size                              : 233 Bytes (0%)
Language                                 : French
Default                                  : No
Forced                                   : No

Menu
00:00:00.000                             : en:Chapter 01
00:05:16.190                             : en:Chapter 02
00:10:03.686                             : en:Chapter 03
00:14:04.552                             : en:Chapter 04
00:17:30.049                             : en:Chapter 05
00:21:46.513                             : en:Chapter 06
00:25:35.408                             : en:Chapter 07
00:31:09.576                             : en:Chapter 08
00:37:02.136                             : en:Chapter 09
00:41:01.125                             : en:Chapter 10
00:44:33.796                             : en:Chapter 11
00:50:41.163                             : en:Chapter 12
00:54:37.607                             : en:Chapter 13
01:00:32.754                             : en:Chapter 14
01:04:42.920                             : en:Chapter 15
01:10:13.167                             : en:Chapter 16
01:13:30.239                             : en:Chapter 17
01:16:38.552                             : en:Chapter 18
01:21:17.289                             : en:Chapter 19
01:25:52.272                             : en:Chapter 20

           
Category:Movies > 1080P Bluray
Lang:English  English
Total Size:4.37 GB
Info Hash:be06438168eebcf616d9ae51a1c4e8c4f3ea3955
Added By:Download
Date Added:07-08-2018 14:35:51
Downloads:121

Ratings:Not Yet Rated (Log in to rate it)


Tracker:
udp://tracker.coppersurfer.tk:6969/announce


File List: 


Comments

No comments still posted

Copyright 2018 DownloadHD -|- Page Generated In 0.948846 secs.
-|- RSS Feed -|- Feed Info